Michael Schenker Fest - Revelation 2019 (Lossless)

 
 1 120
 11
Michael Schenker Fest - Revelation 2019 (Lossless)

Исполнитель: Michael Schenker Fest
Альбом: Revelation
Год: 2019
Жанр: Hard Rock
Страна: Germany
Лейбл & Номер Издания: Soyuz Music (NB 4860-0)
Формат: FLAC (image+.cue+log)
Время Звучания: 77:08
Размер: 577 Mb
Файлообменник: M-Cloud

Tracklist:
01. Rock Steady (feat. Gary Barden, Graham Bonnet, Robin McAuley & Doogie White)
02. Under A Blood Red Sky (feat. Doogie White)
03. Silent Again (feat. Robin McAuley)
04. Sleeping With The Light On (feat. Gary Barden, Graham Bonnet, Robin McAuley & Doogie White)
05. The Beast In The Shadows (feat. Graham Bonnet)
06. Behind The Smile (feat. Doogie White)
07. Crazy Daze (feat. Gary Barden)
08. Lead You Astray (feat. Robin McAuley)
09. We Are The Voice (feat. Ronnie Romero)
10. Headed For The Sun (feat. Gary Barden)
11. Old Man (feat. Gary Barden, Graham Bonnet, Robin McAuley & Doogie White)
12. Still In The Fight (feat. Graham Bonnet)
13. Ascension
14. Armed And Ready {Live / Bonus Track}
15. Bad Boys {Live / Bonus Track}
16. Rock Bottom {Live / Bonus Track}



Line-Up & Credits:
Robin McAuley - Vocals
Gary Barden - Vocals
Graham Bonnet - Vocals
Ronnie Romero - Vocals
Doogie White - Vocals
Michael Schenker - Guitars, Backing Vocals
Steve Mann - Guitars, Keyboards
Chris Glen - Bass
Bodo Schopf - Drums
Simon Phillips - Drums

*****************************
Produced: Michael Schenker & Michael Voss
Recorded, Mixed and Engineered: Michael Voss at Kidpool Studio Greven & Kidwood Studio, M?nstertal, Germany
Simon Phillips's Drums Recorded: Jason Mariani at Brotherynstudios, Ojai, CA
Bodo Schopf's Drums Recorded: Rolf Munkes at Empire Studios, Bensheim, Germany
Mastered: Christoph "Doc" Stickel at CS Mastering, Vienna, Austria

Внимание! У Вас нет прав для просмотра скрытого текста.








Скачать Michael Schenker Fest - Revelation 2019 (Lossless)
Внимание! У Вас нет прав для просмотра скрытого текста.
скачать dle 12.0

Уважаемый посетитель, для того, чтобы скачать Michael Schenker Fest - Revelation 2019 (Lossless) бесплатно, Вам необходимо зарегистрироваться либо войти на сайт под своим именем. Приятного прослушивания!
Уважаемый посетитель, Вы зашли на сайт как незарегистрированный пользователь.
Мы рекомендуем Вам РЕГИСТРАЦИЯ либо войти на сайт под своим именем.
13 ноября 2019 20:20
+1

nfisher

На сайте с 11.04.2013

Публикаций: 1 662

Комментариев: 403

Thanks to breaker65?
13 ноября 2019 18:22
0

reee11

На сайте с 15.10.2019

Публикаций: 0

Комментариев: 7

DR7 -0.41 dB -8.30 dB 4:26 01-Rock Steady (feat. Gary Barden, Graham Bonnet, Robin McAuley & Doogie White)
DR6 -0.41 dB -7.03 dB 3:55 02-Under A Blood Red Sky (feat. Doogie White)
DR6 -0.41 dB -6.94 dB 4:11 03-Silent Again (feat. Robin McAuley)
DR7 -0.41 dB -9.36 dB 4:03 04-Sleeping With The Light On (feat. Gary Barden, Graham Bonnet, Robin McAuley & Doogie White)
DR6 -0.41 dB -6.92 dB 5:02 05-The Beast In The Shadows (feat. Graham Bonnet)
DR7 -0.41 dB -8.48 dB 4:32 06-Behind The Smile (feat. Doogie White)
DR7 -0.41 dB -8.41 dB 3:53 07-Crazy Daze (feat. Gary Barden)
DR6 -0.41 dB -7.30 dB 3:32 08-Lead You Astray (feat. Robin McAuley)
DR6 -0.41 dB -7.65 dB 3:24 09-We Are The Voice (feat. Ronnie Romero)
DR6 -0.41 dB -7.43 dB 3:22 10-Headed For The Sun (feat. Gary Barden)
DR7 -0.41 dB -10.23 dB 5:00 11-Old Man (feat. Gary Barden, Graham Bonnet, Robin McAuley & Doogie White)
DR6 -0.41 dB -7.18 dB 3:58 12-Still In The Fight (feat. Graham Bonnet)
DR5 -0.41 dB -6.07 dB 3:21 13-Ascension
DR6 -1.94 dB -8.55 dB 4:41 14-Armed And Ready {Live / Bonus Track}
DR6 -2.52 dB -8.58 dB 4:07 15-Bad Boys {Live / Bonus Track}
DR6 -2.25 dB -8.78 dB 15:41 16-Rock Bottom {Live / Bonus Track}
--------------------------------------------------------------------------------

Number of tracks: 16
Official DR value: DR6
13 ноября 2019 16:08
-1

sashati

На сайте с 23.10.2019

Публикаций: 0

Комментариев: 41

На трекере есть варианты помясистее, спасибо за новость!
28 сентября 2019 09:44
+1

igarka62

На сайте с --

Публикаций: 0

Комментариев: 0

Классный альбом очень радует, да и состав обязывает. Cпасибо за качество.
22 сентября 2019 19:14
+4

AvgoDima

На сайте с --

Публикаций: 0

Комментариев: 0

С сети ...
обложка представляет собой стилизацию под картину маслом, которая воссоздает сцену распятия.
Михаэля Шенкера распинают на гигантской гитаре “Flying V”, а его коллег по группе, одетых в классические металлические костюмы, удерживают римские легионеры....
.....Комментируя название "Revelation", Шенкер сказал: "Название альбома и концепция обложки выражают те вещи, которые происходили со мной в прошлом и продолжаются в настоящем. Все это – о противоборстве страсти и чистоты с жадностью и коррупцией. Об этом можно долго говорить. Пришло время рассказать людям часть того, что я знаю".
21 сентября 2019 14:19
+1

timekiller61

На сайте с --

Публикаций: 0

Комментариев: 0

Чо то он-Мишаня-забыл в буклет Ронни Ромеро и Саймона Райта поместить-это я о том,что сканов-опять нет-а кое-где-есть уже.
19 сентября 2019 14:31
+1

doctorhtein

На сайте с --

Публикаций: 0

Комментариев: 0

На фоне общей эйфории качество записи как то ушло на задний план ! Послушал в лосе (в наушниках), всё то же самое , что и МР-3. Хотя бы второй трек взять , гитарное вступление нормальное , но на 5 секунде идёт провал !
Только Дмитрий высказался ! И по ходу так оригинал записан в студии . Жаль !
18 сентября 2019 20:40
+7

Musanka

На сайте с --

Публикаций: 0

Комментариев: 0

Музыка тут классная, все сработали от души, постарались випы. Если не обращать внимания на обложку, то и вовсе отлично, открылось у Мишани энное дыхание, и это радует. solo
18 сентября 2019 20:24
+4

f-iron

На сайте с --

Публикаций: 0

Комментариев: 0

скажу так..если это лосяра..то качество записи что то не фонтан...ну и облога такая не к добру... yes-yes аминь
а так реальный музон от Мишани..и от отличных вокалистов последних десятилетий ..не супер....НО вот реальный значит хороший.
18 сентября 2019 19:53
+1

DONZ7

На сайте с --

Публикаций: 0

Комментариев: 0

С такой бандой ... yes-yes
Огромное Спасибо !!!
18 сентября 2019 18:32
+5

Brier Oz

На сайте с --

Публикаций: 0

Комментариев: 0

Обалдеть.
Не успел толком послушать в МР3,
А тут Лосятина.
Огромное Спасибо !!!
Замечательный альбом.
Панель управления
Регистрация
Поиск по сайту

Реклама
Мистер Робот
Сериал Карнивал Роу смотреть онлайн
News блок

MOTLEY CRUE объявили о воссоединении!

Топ комментаторов
Книга жалоб и предложений