Ozzy Osbourne - Ordinary Man 2020 (Lossless - Vinyl-Rip)

 
 1 338
 11
Исполнитель: Ozzy Osbourne
Страна: UK
Название: Ordinary Man
Издатель (лейбл): Epic - 19439718451
Жанр: Hard Rock, Heavy Metal
Год: 2020
Битрейт аудио: Lossless-FLAC (tracks+.cue) Vinyl-Rip
Размер: 1.05 Gb
Файлообменник: Cloud.Mail


Треклист:
Side 1
A1 - Straight To Hell - 3:45
A2 - All My Life - 4:18
A3 - Goodbye - 5:34
A4 - Ordinary Man - 5:01
Featuring - Elton John
A5 - Under The Graveyard - 4:57
Side 2
B1 - Eat Me - 4:19
B2 - Today Is The End - 4:06
B3 - Scary Little Green Men - 4:20
B4 - Holy For Tonight - 4:52
B5 - It's A Raid - 4:20
Featuring - Post Malone


Cостав:
Bass Guitar - Duff McKagan
Drums - Chad Smith
Guitar - Tom Morello (tracks: 8)
Keyboards - Charlie Puth (tracks: 1)
Lead Guitar - Slash (tracks: 1,4)
Lead Vocals - Ozzy Osbourne
Producer, Guitar - Andrew Watt
Vocals, Piano - Elton John (tracks: 4)


Техническая информация
Источник оцифровки: третьим лицом
Код класса состояния винила: Mint
Устройство воспроизведения: Vintage (1982) Yamaha PX-3
Головка звукоснимателя: Sumiko Black Bird/Shibata
Предварительный усилитель: Audio Research SP15 own tube phono section
АЦП: RME Fireface UC
Программа-оцифровщик: Adobe Audition CS 5.5
Обработка: Very careful de-clicking with iZotope RX5 Advanced
DR  - 10


скачать dle 12.0


Уважаемый посетитель, для того, чтобы скачать Ozzy Osbourne - Ordinary Man 2020 (Lossless - Vinyl-Rip) бесплатно, Вам необходимо зарегистрироваться либо войти на сайт под своим именем. Приятного прослушивания!
Уважаемый посетитель, Вы зашли на сайт как незарегистрированный пользователь.
Мы рекомендуем Вам зарегистрироваться, либо войти на сайт под своим именем.
29 февраля 2020 10:47
+2

Strelok

На сайте с 19.08.2013

Публикаций: 684

Комментариев: 878

Цитата: Imagine
чтоб ты в его возрасте,мог самостоятельно ширинку растегнуть.

Если самому расстегнуть, то значит превзошел таки Великого и Ужасного? Ну что. Подождем! Насчет чтоб доказать, действительно зачем? Имя есть, народ любую хрень слопает. Да еще и покусает тех, кто выразил отрицательное мнение "на святое". Здесь ведь молодняк только, музыку второй день слушают. Что с них взять - то?smile

Цитата: f-iron
если это скучный тогда что ..ваш пример 

Пытался дополнить (додумать) фразу. Проблематично однако.stuck_out_tongue_winking_eye

28 февраля 2020 21:52
0

hellwings71

На сайте с 14.01.2017

Публикаций: 288

Комментариев: 230

Цитата: SILVERTRAIN

Этот альбом я возьму для истории: скорее всего - это последний альбом Великого Оззи. Дай бог ему здоровья (Паркинсон - не шутка).

Дай бог и вам здоровья.

Цитата: Imagine

Цитата: stargunner
Скучный, плохой альбом
А,поподробнее низзя?Случаем не с похмела писалось?Если скучно-вышивай!И дело не в том,что он давно уже самореализовался как музыкант,и доказывать кому-то,чего-то-надобности нет.И тем боле как уже спросили-пример приведи.Что можно ожидать от 70-ти летнего-"Bark at the moon"?Дай боже ,чтоб ты в его возрасте,мог самостоятельно ширинку растегнуть.

Хорошо сказано,особенно про самостоятельно растегнутую.
28 февраля 2020 17:49
0

Imagine

На сайте с 12.10.2019

Публикаций: 0

Комментариев: 238

Цитата: stargunner
Скучный, плохой альбом
А,поподробнее низзя?Случаем не с похмела писалось?Если скучно-вышивай!И дело не в том,что он давно уже самореализовался как музыкант,и доказывать кому-то,чего-то-надобности нет.И тем боле как уже спросили-пример приведи.Что можно ожидать от 70-ти летнего-"Bark at the moon"?Дай боже ,чтоб ты в его возрасте,мог самостоятельно ширинку растегнуть.

23 февраля 2020 17:44
+1

reee11

На сайте с 15.10.2019

Публикаций: 0

Комментариев: 13

DR Peak RMS Duration Track
-------------------------------------------------------------------------------
-
DR9 -1.73 dB -13.25 dB 3:47 01-Straight To Hell
DR10 -1.41 dB -13.61 dB 4:21 02-All My Life
DR10 -1.27 dB -12.80 dB 5:32 03-Goodbye
DR10 -1.75 dB -14.43 dB 5:02 04-Ordinary Man (Feat. Elton John)
DR10 -1.35 dB -13.36 dB 4:58 05-Under The Graveyard
DR10 -1.42 dB -14.04 dB 4:21 06-Eat Me
DR10 -1.06 dB -13.71 dB 4:06 07-Today Is The End
DR9 -1.59 dB -13.93 dB 4:20 08-Scary Little Green Men
DR10 -2.23 dB -14.56 dB 4:52 09-Holy For Tonight
DR10 -0.68 dB -12.27 dB 4:27 10-It's A Raid (Feat. Post Malone)
-------------------------------------------------------------------------------
-

Number of tracks: 10
Official DR value: DR10

Ну, неплохо, слушать можно будет без крови из ушей

23 февраля 2020 16:58
+2

Brier Oz

На сайте с 17.10.2019

Публикаций: 0

Комментариев: 372

Хороший альбом.

Этот альбом показывает, что  Ozzy Osbourne

Может быть, не только Великим и Ужасным ,

А Великим  и Разнообразным
То есть, другие стили и компромиссы  могут быть  в его музыке.

Кому то  это нравится, кому то нет.

Ozzy в таком возрасте и с такими заслугами в музыке,

Что мелких провалов ему боятся нечего.

Истинные  фаны  его поддержат в любом случае.

 Большое Спасибо за качественный Лось.

23 февраля 2020 15:56
+1

f-iron

На сайте с 13.10.2019

Публикаций: 0

Комментариев: 646

Цитата: stargunner
Скучный, плохой альбом

если это скучный тогда что ..ваш пример 

23 февраля 2020 15:55
+1

SILVERTRAIN

На сайте с 15.10.2019

Публикаций: 0

Комментариев: 259

Этот альбом я возьму для истории: скорее всего - это последний альбом Великого Оззи. Дай бог ему здоровья (Паркинсон - не шутка).

23 февраля 2020 14:37
+1

stargunner

На сайте с 27.10.2019

Публикаций: 0

Комментариев: 2

Скучный, плохой альбом smirk

23 февраля 2020 14:26
0

reee11

На сайте с 15.10.2019

Публикаций: 0

Комментариев: 13

СКАЧАТЬ MP3 C MAIL CLOUD
:-)

Ну посмотрим... у сидюка ДР вообще позорный. На известном трекере есть деклиппированный вариант, сейчас скачаю, сравню

23 февраля 2020 14:05
+3

f-iron

На сайте с 13.10.2019

Публикаций: 0

Комментариев: 646

отличное издание...я б не отказался 

23 февраля 2020 13:53
+3

valerak

На сайте с 17.10.2019

Публикаций: 0

Комментариев: 215

Спс, ДимДимыч! От порадовал! Этот релиз великолепен! А как посмотрел сканы винила, его конверта - ну чисто из 70-х! Подумалось вот бы свой такой. Именно винил а не CD. Напоминает когда держал грубые конверты LZ, BS...

Панель управления
Регистрация
Поиск по сайту


News блок

Свежий релиз Alestorm

New Releases
Топ комментаторов
Книга жалоб и предложений